<?xml version="1.0" standalone="no"?>
<!DOCTYPE svg PUBLIC "-//W3C//DTD SVG 1.1//EN" "http://www.w3.org/Graphics/SVG/1.1/DTD/svg11.dtd">
<svg xmlns="http://www.w3.org/2000/svg">
<metadata>Copyright (C) 2019 by original authors @ fontello.com</metadata>
<defs>
<font id="fa-regular-400" horiz-adv-x="1000" >
<font-face font-family="fa-regular-400" font-weight="400" font-stretch="normal" units-per-em="1000" ascent="850" descent="-150" />
<missing-glyph horiz-adv-x="1000" />
<glyph glyph-name="heart" unicode="&#xf004;" d="M895 724c147-123 126-325 21-432l-343-349c-19-20-45-31-73-31-28 0-54 11-73 31l-343 349c-105 107-126 309 21 432 113 96 287 81 395-29 108 110 282 124 395 29z m-46-366c71 72 86 211-14 295-76 63-193 54-267-21l-68-70-68 70c-74 75-191 84-267 21-100-85-85-222-14-295l342-349c5-4 9-4 14 0z" horiz-adv-x="1000" />

<glyph glyph-name="star" unicode="&#xf005;" d="M1031 515c52-7 72-70 35-107l-206-201 48-284c9-51-45-90-90-66l-255 134-256-134c-45-24-99 15-90 66l48 284-206 201c-37 37-17 100 35 107l285 42 127 258c24 47 90 46 113 0l127-258z m-272-275l197 191-272 40-121 246-122-246-271-40 196-191-46-270 243 127 242-127z" horiz-adv-x="1125" />

<glyph glyph-name="user" unicode="&#xf007;" d="M613 256c144 0 262-117 262-262v-50c0-52-42-94-94-94h-687c-52 0-94 42-94 94v50c0 145 118 262 263 262 56 0 83-31 175-31s118 31 175 31z m168-312v50c0 93-75 169-168 169-29 0-74-32-175-32-101 0-147 32-175 32-93 0-169-76-169-169v-50h687z m-343 344c-156 0-282 126-282 281s126 281 282 281 281-126 281-281-126-281-281-281z m0 468c-104 0-188-84-188-187s84-188 188-188 187 84 187 188-84 187-187 187z" horiz-adv-x="875" />

<glyph glyph-name="clock" unicode="&#xf017;" d="M500 834c268 0 484-216 484-484s-216-484-484-484-484 216-484 484 216 484 484 484z m0-875c216 0 391 175 391 391s-175 391-391 391-391-175-391-391 175-391 391-391z m121 204l-166 121c-6 4-10 11-10 19v320c0 13 11 24 24 24h62c13 0 24-11 24-24v-276l130-95c11-8 13-22 5-33l-36-51c-8-10-23-12-33-5z" horiz-adv-x="1000" />

<glyph glyph-name="image" unicode="&#xf03e;" d="M906 725c52 0 94-42 94-94v-562c0-52-42-94-94-94h-812c-52 0-94 42-94 94v562c0 52 42 94 94 94h812z m-11-656c6 0 11 5 11 12v539c0 6-5 11-11 11h-789c-7 0-12-5-12-11v-539c0-7 5-12 12-12h789z m-645 484c43 0 78-35 78-78s-35-78-78-78-78 35-78 78 35 78 78 78z m-62-390v93l77 77c9 10 24 10 33 0l77-77 233 234c10 9 24 9 34 0l171-171v-156h-625z" horiz-adv-x="1000" />

<glyph glyph-name="edit" unicode="&#xf044;" d="M786 176l62 63c10 10 27 3 27-11v-284c0-52-42-94-94-94h-687c-52 0-94 42-94 94v687c0 52 42 94 94 94h534c14 0 21-17 11-27l-62-62c-3-3-7-5-12-5h-471v-687h687v221c0 5 2 8 5 11z m306 395l-513-513-177-20c-51-6-95 38-89 89l20 177 513 513c44 44 117 44 161 0l84-85c45-44 45-117 1-161z m-193-61l-114 114-363-363-14-128 128 14z m126 156l-84 84c-8 8-21 8-29 0l-60-60 113-114 60 61c8 8 8 21 0 29z" horiz-adv-x="1123" />

<glyph glyph-name="calendar-alt" unicode="&#xf073;" d="M289 288h-78c-13 0-23 10-23 23v78c0 13 10 24 23 24h78c13 0 24-11 24-24v-78c0-13-11-23-24-23z m211 23c0-13-10-23-23-23h-79c-12 0-23 10-23 23v78c0 13 11 24 23 24h79c13 0 23-11 23-24v-78z m188 0c0-13-11-23-24-23h-78c-13 0-23 10-23 23v78c0 13 10 24 23 24h78c13 0 24-11 24-24v-78z m-188-188c0-12-10-23-23-23h-79c-12 0-23 11-23 23v79c0 13 11 23 23 23h79c13 0 23-10 23-23v-79z m-187 0c0-12-11-23-24-23h-78c-13 0-23 11-23 23v79c0 13 10 23 23 23h78c13 0 24-10 24-23v-79z m375 0c0-12-11-23-24-23h-78c-13 0-23 11-23 23v79c0 13 10 23 23 23h78c13 0 24-10 24-23v-79z m187 508v-687c0-52-42-94-94-94h-687c-52 0-94 42-94 94v687c0 52 42 94 94 94h94v102c0 13 10 23 23 23h78c13 0 24-10 24-23v-102h250v102c0 13 10 23 23 23h78c13 0 24-10 24-23v-102h93c52 0 94-42 94-94z m-94-676v583h-687v-583c0-6 5-11 12-11h664c6 0 11 5 11 11z" horiz-adv-x="875" />

<glyph glyph-name="comment" unicode="&#xf075;" d="M500 788c-276 0-500-182-500-407 0-93 39-178 103-246-29-77-89-143-90-143-13-14-17-34-9-51s24-29 43-29c120 0 215 51 272 91 56-18 117-28 181-28 276 0 500 182 500 406s-224 407-500 407z m0-719c-52 0-104 8-153 23l-44 14-38-26c-28-20-67-42-113-57 14 24 28 50 39 78l21 55-40 43c-36 38-78 100-78 182 0 173 182 313 406 313s406-140 406-313-182-312-406-312z" horiz-adv-x="1000" />

<glyph glyph-name="folder" unicode="&#xf07b;" d="M906 600c52 0 94-42 94-94v-437c0-52-42-94-94-94h-812c-52 0-94 42-94 94v562c0 52 42 94 94 94h286c17 0 33-7 45-18l106-107h375z m0-531v437h-388c-16 0-32 7-44 19l-107 106h-273v-562h812z" horiz-adv-x="1000" />

<glyph glyph-name="folder-open" unicode="&#xf07c;" d="M1031 413c74 0 119-82 80-144l-156-250c-18-27-48-44-80-44h-781c-52 0-94 42-94 94v562c0 52 42 94 94 94h312l125-125h313c52 0 94-42 94-94v-93h93z m-937 207v-456l123 203c17 28 47 46 80 46h547v82c0 6-5 11-12 11h-340l-125 125h-261c-7 0-12-5-12-11z m781-551l156 250h-740l-150-250h734z" horiz-adv-x="1123" />

<glyph glyph-name="chart-bar" unicode="&#xf080;" d="M775 163c-12 0-25 12-25 25v450c0 12 13 25 25 25h44c12 0 25-13 25-25v-450c0-13-13-25-25-25h-44z m-375 0c-12 0-25 12-25 25v387c0 13 13 25 25 25h44c12 0 25-12 25-25v-387c0-13-13-25-25-25h-44z m188 0c-13 0-25 12-25 25v262c0 13 12 25 25 25h43c13 0 25-12 25-25v-262c0-13-12-25-25-25h-43z m381-94c17 0 31-14 31-31v-32c0-17-14-31-31-31h-906c-35 0-63 28-63 63v656c0 17 14 31 31 31h32c17 0 31-14 31-31v-625h875z m-756 94c-13 0-25 12-25 25v137c0 13 12 25 25 25h43c13 0 25-12 25-25v-137c0-13-12-25-25-25h-43z" horiz-adv-x="1000" />

<glyph glyph-name="comments" unicode="&#xf086;" d="M1039 96c30-60 73-107 74-107 12-13 16-33 9-49-8-17-24-28-42-28-105 0-189 40-244 76-38-8-77-13-117-13-169 0-313 79-374 191-19 2-37 6-55 10-56-37-140-76-245-76-18 0-34 11-41 27-8 17-4 36 8 49 1 1 44 47 74 107-54 53-86 120-86 192 0 173 182 313 406 313 169 0 313-80 375-192 195-23 344-152 344-308 0-73-32-139-86-192z m-767 180l39-9c31-7 63-11 95-11 170 0 313 100 313 219s-143 219-313 219-312-100-312-219c0-56 31-99 58-125l48-48-30-61c-5-10-10-19-16-28 29 10 57 24 85 41z m701-113c27 26 58 68 58 125 0 96-94 178-220 207 1-7 2-13 2-20 0-158-153-288-351-309 57-58 151-97 257-97 32 0 64 4 96 11l38 9 34-22c27-18 55-32 84-42-5 9-11 19-16 29l-30 61z" horiz-adv-x="1125" />

<glyph glyph-name="envelope" unicode="&#xf0e0;" d="M906 725c52 0 94-42 94-94v-562c0-52-42-94-94-94h-812c-52 0-94 42-94 94v562c0 52 42 94 94 94h812z m0-94h-812v-79c44-36 113-92 263-208 33-26 98-88 143-88 45 0 111 62 143 88 150 116 220 172 263 208v79z m-812-562h812v362c-44-35-108-85-205-161-44-35-118-108-201-107-84-1-159 73-201 107-97 76-160 126-205 161v-362z" horiz-adv-x="1000" />

<glyph glyph-name="bell" unicode="&#xf0f3;" d="M858 142c12-12 17-27 17-42 0-32-25-62-63-62h-749c-38 0-63 30-63 62 0 15 5 30 17 42 38 41 108 102 108 302 0 152 107 273 250 303v41c0 34 28 62 63 62s62-28 62-62v-41c143-30 250-151 250-303 0-200 70-261 108-302z m-726-11h611c-41 55-87 145-87 312 0 0 0 0 0 1 0 121-98 219-218 219s-219-98-219-219c0-1 0-1 0-1 0-167-46-257-87-312z m306-281c-69 0-125 56-125 125h249c0-69-55-125-124-125z" horiz-adv-x="875" />

<glyph glyph-name="circle" unicode="&#xf111;" d="M500 834c268 0 484-216 484-484s-216-484-484-484-484 216-484 484 216 484 484 484z m0-875c216 0 391 175 391 391s-175 391-391 391-391-175-391-391 175-391 391-391z" horiz-adv-x="1000" />

<glyph glyph-name="calendar" unicode="&#xf133;" d="M781 725c52 0 94-42 94-94v-687c0-52-42-94-94-94h-687c-52 0-94 42-94 94v687c0 52 42 94 94 94h94v102c0 13 10 23 23 23h78c13 0 24-10 24-23v-102h250v102c0 13 10 23 23 23h78c13 0 24-10 24-23v-102h93z m-11-781c6 0 11 5 11 11v583h-687v-583c0-6 5-11 12-11h664z" horiz-adv-x="875" />

<glyph glyph-name="check-square" unicode="&#xf14a;" d="M781 788h-687c-52 0-94-42-94-94v-688c0-52 42-94 94-94h687c52 0 94 42 94 94v688c0 52-42 94-94 94z m0-782h-687v688h687v-688z m-70 472l-337-334c-9-9-24-9-33 0l-177 179c-9 9-9 24 0 33l44 44c9 9 24 9 33 0l117-118 276 274c9 9 24 9 33 0l44-44c10-10 9-24 0-34z" horiz-adv-x="875" />

<glyph glyph-name="file" unicode="&#xf15b;" d="M723 659c17-18 27-42 27-67v-648c0-52-42-94-94-94h-562c-52 0-94 42-94 94v812c0 52 42 94 94 94h398c25 0 49-10 67-27z m-74-59l-149 149v-149h149z m-555-656h562v562h-203c-26 0-47 21-47 47v203h-312v-812z" horiz-adv-x="750" />

<glyph glyph-name="thumbs-up" unicode="&#xf164;" d="M911 290c9-44 1-87-18-123 6-47-8-95-34-131-2-109-70-186-220-186-14 0-30 0-44 0-200 0-260 76-347 78-7-27-31-47-60-47h-125c-35 0-63 28-63 63v469c0 34 28 62 63 62h192c38 33 90 119 135 163 26 27 20 212 140 212 112 0 186-62 186-204 0-36-8-66-17-91h71c95 0 168-82 168-168 0-37-10-68-27-97z m-121-105c42 40 37 100 10 128 19 0 44 37 44 74 0 37-33 74-74 74h-203c0 74 55 108 55 184 0 47 0 111-92 111-37-37-19-129-74-184-52-52-129-191-185-191h-21v-363c105 0 195-74 335-74h74c70 0 119 33 104 129 30 15 52 71 27 112z m-618-179c0 26-21 47-47 47s-47-21-47-47 21-47 47-47 47 21 47 47z" horiz-adv-x="937.5" />

<glyph glyph-name="dot-circle" unicode="&#xf192;" d="M500 741c-216 0-391-175-391-391 0-216 175-391 391-391 216 0 391 175 391 391 0 216-175 391-391 391z m0 93c268 0 484-216 484-484s-216-484-484-484-484 217-484 484 217 484 484 484z m0-328c86 0 156-70 156-156s-70-156-156-156-156 70-156 156 70 156 156 156z" horiz-adv-x="1000" />

<glyph glyph-name="life-ring" unicode="&#xf1cd;" d="M500-134c-267 0-484 217-484 484s217 484 484 484 484-216 484-484-216-484-484-484z m-202 150c124-75 281-75 404 0l-104 104c-63-27-133-27-196 0z m358 334c0 86-70 156-156 156s-156-70-156-156 70-156 156-156 156 70 156 156z m179-202c74 124 74 281 0 404l-105-104c27-63 27-133 0-196z m-133 537c-123 74-280 74-404 0l104-105c63 27 134 27 196 0z m-536-133c-75-123-75-280 0-404l104 104c-27 63-27 134 0 196z" horiz-adv-x="1000" />

<glyph glyph-name="object-group" unicode="&#xf247;" d="M977 600h-24v-500h24c13 0 23-10 23-23v-141c0-13-10-24-23-24h-141c-13 0-23 11-23 24v23h-625v-23c0-13-11-24-24-24h-141c-12 0-23 11-23 24v141c0 13 11 23 23 23h24v500h-24c-12 0-23 11-23 23v141c0 13 11 24 23 24h141c13 0 24-11 24-24v-23h625v23c0 13 10 24 23 24h141c13 0 23-11 23-24v-141c0-12-10-23-23-23z m-102 125v-62h63v62h-63z m-812 0v-62h62v62h-62z m62-750v63h-62v-63h62z m813 0v63h-63v-63h63z m-79 125v500h-23c-13 0-23 11-23 23v24h-625v-24c0-12-11-23-24-23h-23v-500h23c13 0 24-10 24-23v-24h625v24c0 13 10 23 23 23h23z m-70 375c13 0 24-10 24-23v-329c0-12-11-23-24-23h-391c-12 0-23 11-23 23v102h-164c-13 0-23 11-23 23v329c0 13 10 23 23 23h391c13 0 23-10 23-23v-102h164z m-523 47v-219h281v219h-281z m468-344v219h-109v-149c0-12-10-23-23-23h-149v-47h281z" horiz-adv-x="1000" />
</font>
</defs>
</svg>
